Eşkıya Dünyaya Hükümdar O... | Meari to majo no h.. (2017) | Netsuzou TRap

Suicide Squad Hell to Pay 2018 BRrip X264 LLG

Posted by LifeLongg •970 on April 17, 2018 in Movies » Animation , verified torrent

Size: 933.45 MB , Seeds: 1 , Peers: 0 ( Updated June 20, 2018 - Refresh )

* Download via Magnet Link , * To download files you need a Bittorrent Client , * How to download torrents from Bit Torrent Scene?

Scrape History ( seeds + peers )

Internal Files

Suicide.Squad.Hell.to.Pay.2018.BRrip.X264.LLG
Sample.ts   12.32 MB
Suicide.Squad.Hell.to.Pay.2018.BRrip.X264.LLG.mp4   921.13 MB

Hash Code

d7ec0589f5eb65750e3245b0f2d657f7970307cc

Description

SCREENSHOT

SCREENSHOT

******************************Thumbnail:**********************

SCREENSHOT

******************************Screenshots:********************

Screenshot 1

Screenshot 2

Screenshot 3

Screenshot 4

Screenshot 5

Screenshot 6

Screenshot 7

Screenshot 8

Screenshot 9

Screenshot 0

**************************************************************

Complete name : Suicide.Squad.Hell.to.Pay.2018.BRrip.X264.LLG.mp4
Format : MPEG-4
Format profile : Base Media
Codec ID : isom (isom/iso2/avc1/mp41)
File size : 921 MiB
Duration : 1 h 26 min
Overall bit rate : 1 497 kb/s
Writing application : Lavf57.56.101

Video
ID : 1
Format : AVC
Format/Info : Advanced Video Codec
Format profile : [email protected]
Format settings : CABAC / 4 Ref Frames
Format settings, CABAC : Yes
Format settings, RefFrames : 4 frames
Codec ID : avc1
Codec ID/Info : Advanced Video Coding
Duration : 1 h 26 min
Bit rate : 1 200 kb/s
Width : 720 pixels
Height : 400 pixels
Display aspect ratio : 16:9
Frame rate mode : Constant
Frame rate : 23.976 (23976/1000) FPS
Color space : YUV
Chroma subsampling : 4:2:0
Bit depth : 8 bits
Scan type : Progressive
Bits/(Pixel*Frame) : 0.174
Stream size : 760 MiB (83%)

Audio
ID : 2
Format : AC-3
Format/Info : Audio Coding 3
Codec ID : ac-3
Duration : 1 h 26 min
Bit rate mode : Constant
Bit rate : 256 kb/s
Channel(s) : 6 channels
Channel positions : Front: L C R, Side: L R, LFE
Sampling rate : 48.0 kHz
Frame rate : 31.250 FPS (1536 SPF)
Bit depth : 16 bits
Compression mode : Lossy
Stream size : 158 MiB (17%)
Service kind : Complete Main
Default : Yes
Alternate group : 1

Trackers

Refresh Leechers : Updated June 20, 2018

1. udp://tracker.openbittorrent.com:80/announce

2. udp://tracker.opentrackr.org:1337/announce

Comments

You must log in to add a comment.

Embed Code

Sharing Widget

Related torrents

FILENAME SIZE SEEDS PEERS ADDED UPD
[i] Suicide Squad Hell to Pay (2018) [BluRay] [720p] [YTS AM] 739.38 MB 375 55 3 months 3 weeks
[i] Suicide Squad Hell to Pay.2018.HDRip.XviD.AC3-EVO 1.1 GB 348 45 3 months 1 week
[i] Suicide Squad Hell to Pay (2018) [BluRay] [1080p] [YTS AM] 1.38 GB 270 31 3 months 3 weeks
[i] Suicide.Squad.Hell.to.Pay.2018.WEB-DL.x264-FGT 849.65 MB 120 51 3 months 3 months
[i] Suicide Squad Hell to Pay.2018..HDRip.AC3.X264-CMRG[EtMovies] 884 MB 67 16 3 months 3 months
[i] Suicide Squad Hell to Pay.2018.720p.WEB-DL.H264.AC3-EVO[N1C] 2.68 GB 21 0 3 months 1 week
[i] Suicide Squad Hell to Pay.2018..HDRip.AC3.X264-CMRG[N1C] 864.31 MB 9 17 3 months 3 months
[i] Suicide Squad Hell to Pay 2018 720p BRRip x264 ESub [MW]
posted by moviefreak in Movies - Animation
815 MB 7 0 3 months 4 weeks
[i] Suicide Squad Hell to Pay 2018 720p WEB-DL x264 ESub [MW]
posted by moviefreak in Movies - Animation
827.26 MB 4 1 3 months 1 week
[i] Suicide.Squad.Hell.to.Pay.2018.BRrip.X264-CMRG[TGx] 1.35 GB 4 1 3 months 3 weeks

Top Movies ( auto generated report )

FILENAME SIZE SEEDS PEERS ADDED UPD
[i] Overboard (2018) [WEBRip] [720p] [YTS AM] 950.69 MB 5337 2987 1 day 23 hours
[i] How It Ends (2018) [WEBRip] [720p] [YTS AM] 970.57 MB 4127 2454 1 day 23 hours
[i] Furious (2017) [BluRay] [720p] [YTS AM] 1018.36 MB 3682 2215 1 day 23 hours
[i] Overboard (2018) [WEBRip] [1080p] [YTS AM] (1) 1.79 GB 2987 1164 1 day 23 hours
[i] Siberia (2018) [WEBRip] [720p] [YTS AM] 891.58 MB 2776 1456 1 day 23 hours
[i] How It Ends (2018) [WEBRip] [1080p] [YTS AM] 1.82 GB 2685 1386 1 day 23 hours
[i] Furious (2017) [BluRay] [1080p] [YTS AM] 1.9 GB 2622 1258 1 day 23 hours
[i] Siberia (2018) [WEBRip] [1080p] [YTS AM] 1.67 GB 1989 917 1 day 23 hours
[i] 7 Splinters in Time (2018) [WEBRip] [720p] [YTS AM] 653.09 MB 1218 446 1 day 23 hours
[i] Incredibles 2 2018 HDTC XViD AC3-ETRG 1.31 GB 1317 1064 3 days 2 days