The Negotiation
Torrents that need updating / KAT changing/ Mod Work Thread Only..V6
Your IP Address is . Location is Your ISP and Government can track your torrent activity! Hide your IP with a VPN!

Red Sparrow 2018 720p HC HDRip x264 [MW]

DOWNLOAD TORRENT DOWNLOAD PROTECT YOUR PRIVACY

Posted by moviefreak •1404 on April 16, 2018 in Movies » Mystery , verified torrent

Size: 1.06 GB , Seeds: 28 , Peers: 26 ( Updated April 17, 2018 - Refresh )

* Download via Magnet Link , * To download files you need a Bittorrent Client , * How to download torrents from Bit Torrent Scene?

Scrape History ( seeds + peers )

Internal Files

Red Sparrow 2018 720p HC HDRip x264 [MW]
Red Sparrow 2018 720p HC HDRip x264 [MW].mkv   1.06 GB

Hash Code

03c6c49e609eecd22c434eb47de37d61057f6f37

Description


SCREENSHOT


General
Format : Matroska
Format version : Version 4 / Version 2
File size : 1.06 GiB
Duration : 2 h 15 min
Overall bit rate : 1 115 kb/s

Video
ID : 1
Format : AVC
Format/Info : Advanced Video Codec
Format profile : [email protected]
Format settings : CABAC / 4 Ref Frames
Format settings, CABAC : Yes
Format settings, RefFrames : 4 frames
Codec ID : V_MPEG4/ISO/AVC
Duration : 2 h 15 min
Bit rate : 1 000 kb/s
Width : 1 280 pixels
Height : 538 pixels
Display aspect ratio : 2.40:1
Frame rate mode : Constant
Frame rate : 29.970 (30000/1001) FPS
Color space : YUV
Chroma subsampling : 4:2:0
Bit depth : 8 bits
Scan type : Progressive
Bits/(Pixel*Frame) : 0.048
Stream size : 956 MiB (88%)
Writing library : x264 core 155 r2893 b00bcaf
Default : Yes
Forced : No

Audio
ID : 2
Format : AAC
Format/Info : Advanced Audio Codec
Format profile : LC
Codec ID : A_AAC-2
Duration : 2 h 15 min
Bit rate : 128 kb/s
Channel(s) : 2 channels
Channel positions : Front: L R
Sampling rate : 48.0 kHz
Frame rate : 46.875 FPS (1024 SPF)
Compression mode : Lossy
Stream size : 124 MiB (11%)
Language : English
Default : Yes
Forced : No





http://pichub.site/image/JsAzb
http://pichub.site/image/JsB50
http://pichub.site/image/JsKqV
http://pichub.site/image/JsmwT
http://pichub.site/image/Jsu0N
http://pichub.site/image/JsGFD

Trackers

Refresh Leechers : Updated April 17, 2018

1. udp://tracker.pirateparty.gr:6969/announce

2. udp://tracker.opentrackr.org:1337/announce

3. udp://tracker.opentrackr.org:80/announce

4. udp://tracker.vanitycore.co:6969/announce

5. udp://public.popcorn-tracker.org:6969/announce

6. udp://9.rarbg.to:2720/announce

7. udp://9.rarbg.me:2740/announce

8. udp://9.rarbg.com:2790/announce

9. udp://inferno.demonoid.pw:3391/announce

10. udp://tracker.internetwarriors.net:1337/announce

11. udp://ipv4.tracker.harry.lu:80/announce

12. udp://p4p.arenabg.ch:1337/announce

13. http://tracker.vanitycore.co:6969/announce

14. http://public.popcorn-tracker.org:6969/announce

15. udp://tracker.zer0day.to:1337/announce

16. udp://tracker.leechers-paradise.org:6969/announce

17. udp://coppersurfer.tk:6969/announce

Comments

You must log in to add a comment.

Embed Code

Sharing Widget

Related torrents

FILENAME SIZE SEEDS PEERS ADDED UPD
[i] 18+ RED SPARROW 2018 720p HC HDRip AC3 LLG
posted by LifeLongg in Movies - Drama
1.12 GB 104 147 5 days 4 days
[i] Red Sparrow 2018 iTALiAN MD 720p HDTS x264-iSTANCE[MT]
posted by Survivalofmisa in Movies - Thriller
1.65 GB 54 5 1 month 1 week
[i] Red Sparrow 2018 HDCAM 720p MP3 HQMic - Makintos13 964 MB 35 11 1 month 3 days
[i] Red Sparrow 2018.720p.HDCAM.X264-MyBankAccountIsOnline 5.1 GB 19 15 1 month 2 weeks
[i] downloadhub in Red Sparrow (2018) 720p HC HDRip x264 AAC - Downloadhub
posted by downloadhub in Movies - Drama
1.01 GB 13 13 6 days 12 hours
[i] Red Sparrow 2018 HC 720p HDRip Eng Audio KorSub With Sample LLG
posted by LifeLongg in Movies - Drama
1.38 GB 12 13 5 days 4 days
[i] Red Sparrow 2018.720p.HDCAM.X264-MyBankAccountIsOnline[N1C] 5.09 GB 9 10 1 month 2 weeks
[i] 18+ Red Sparrow 2018 HDCAM 720p MP3 HQMic LLG
posted by LifeLongg in Movies - Drama
1004.71 MB 8 7 1 month 1 day
[i] 18+ Red Sparrow 2018 720p HDCAM X264 Clean Audio With Samples LLG
posted by LifeLongg in Movies - Mystery
1.28 GB 7 7 1 month 2 weeks

Top Movies ( auto generated report )

FILENAME SIZE SEEDS PEERS ADDED UPD
[i] Corbin Nash (2018) [WEBRip] [720p] [YTS AM] 824.69 MB 948 899 39 min 35 min
[i] The Debt Collector (2018) [BluRay] [720p] [YTS AM] 818.36 MB 946 714 40 min 35 min
[i] downloadhub in Sonu Ke Titu Ki Sweety (2018) Hindi 720p HDRip x264 AAC ESubs - Downloadhub 1.06 GB 883 490 2 days 1 day
[i] Priceless (2016) [BluRay] [720p] [YTS AM] 853.99 MB 839 474 42 min 41 min
[i] Looking Glass (2018) Nicolas Cage.720p.H264.italian.English.Ac3-5.1.sub.ita.eng.MIRCrew 1.89 GB 773 475 1 day 12 hours
[i] Stephanie (2017) [WEBRip] [720p] [YTS AM] 738.22 MB 748 282 1 day 23 hours
[i] Backstabbing for Beginners (2018) [BluRay] [720p] [YTS AM] 928.47 MB 741 391 1 day 23 hours
[i] Genesis (2018) [WEBRip] [720p] [YTS AM] 965.85 MB 705 966 38 min 35 min
[i] The Condo (2015) [BluRay] [720p] [YTS AM] 684.31 MB 691 338 1 day 1 hour
[i] Genesis.2018.HDRip.XviD.AC3-EVO 1.41 GB 682 621 1 day 22 hours