Mostra tutto
The Deuce
Your IP Address is . Location is Your ISP and Government can track your torrent activity! Hide your IP with a VPN!

Rampage.2018.Movies.720p.HD.TS.x264.AAC.Clean.AC3.Eng.Audio.LLG

DOWNLOAD TORRENT DOWNLOAD PROTECT YOUR PRIVACY

Posted by LifeLongg •592 on April 16, 2018 in Movies » Action , verified torrent

Size: 962.05 MB , Seeds: 101 , Peers: 42 ( Updated April 22, 2018 )

* Download via Magnet Link , * To download files you need a Bittorrent Client , * How to download torrents from Bit Torrent Scene?

Scrape History ( seeds + peers )

Internal Files

Rampage.2018.Movies.HD.TS.x264.AAC.Clean.AC3.Eng.Audio.LLG
Sample.ts   12.26 MB
Rampage.2018.Movies.HD.TS.x264.AAC.Clean.AC3.Eng.Audio.LLG.mp4   949.78 MB

Hash Code

fdb991faf254908c5177145bcb18c36fcd057806

Description

SCREENSHOT

SCREENSHOT

******************************Thumbnail:**********************

SCREENSHOT

******************************Screenshots:********************

Screenshot 1

Screenshot 2

Screenshot 3

Screenshot 4

Screenshot 5

Screenshot 6

Screenshot 7

Screenshot 8

Screenshot 9

Screenshot 0

**************************************************************

Complete name : Rampage.2018.Movies.HD.TS.x264.AAC.Clean.AC3.Eng.Audio.LLG.mp4
Format : MPEG-4
Format profile : Base Media
Codec ID : isom (isom/iso2/avc1/mp41)
File size : 950 MiB
Duration : 1 h 39 min
Overall bit rate : 1 333 kb/s
Writing application : Lavf57.56.101

Video
ID : 1
Format : AVC
Format/Info : Advanced Video Codec
Format profile : [email protected]
Format settings : CABAC / 4 Ref Frames
Format settings, CABAC : Yes
Format settings, RefFrames : 4 frames
Codec ID : avc1
Codec ID/Info : Advanced Video Coding
Duration : 1 h 39 min
Bit rate : 1 200 kb/s
Width : 1 280 pixels
Height : 720 pixels
Display aspect ratio : 16:9
Frame rate mode : Constant
Frame rate : 29.970 (29970/1000) FPS
Color space : YUV
Chroma subsampling : 4:2:0
Bit depth : 8 bits
Scan type : Progressive
Bits/(Pixel*Frame) : 0.043
Stream size : 856 MiB (90%)

Audio
ID : 2
Format : AC-3
Format/Info : Audio Coding 3
Codec ID : ac-3
Duration : 1 h 39 min
Bit rate mode : Constant
Bit rate : 128 kb/s
Channel(s) : 2 channels
Channel positions : Front: L R
Sampling rate : 48.0 kHz
Frame rate : 31.250 FPS (1536 SPF)
Bit depth : 16 bits
Compression mode : Lossy
Stream size : 91.2 MiB (10%)
Language : English
Service kind : Complete Main
Default : Yes
Alternate group : 1

Trackers

Refresh Leechers : Updated April 22, 2018

1. udp://tracker.openbittorrent.com:80/announce

2. udp://tracker.opentrackr.org:1337/announce

3. UDP://TRACKER.LEECHERS-PARADISE.ORG:6969/ANNOUNCE

Comments

You must log in to add a comment.

Embed Code

Sharing Widget

Top Movies ( auto generated report )

FILENAME SIZE SEEDS PEERS ADDED UPD
[i] Corbin Nash (2018) [WEBRip] [720p] [YTS AM] 824.69 MB 1031 960 15 hours 13 hours
[i] The Debt Collector (2018) [BluRay] [720p] [YTS AM] 818.36 MB 1042 902 15 hours 13 hours
[i] downloadhub in Sonu Ke Titu Ki Sweety (2018) Hindi 720p HDRip x264 AAC ESubs - Downloadhub 1.06 GB 1297 910 2 days 14 hours
[i] Priceless (2016) [BluRay] [720p] [YTS AM] 853.99 MB 851 500 15 hours 13 hours
[i] Looking Glass (2018) Nicolas Cage.720p.H264.italian.English.Ac3-5.1.sub.ita.eng.MIRCrew 1.89 GB 773 475 2 days 1 day
[i] Stephanie (2017) [WEBRip] [720p] [YTS AM] 738.22 MB 748 282 2 days 1 day
[i] Backstabbing for Beginners (2018) [BluRay] [720p] [YTS AM] 928.47 MB 741 391 2 days 1 day
[i] Genesis (2018) [WEBRip] [720p] [YTS AM] 965.85 MB 880 1105 15 hours 13 hours
[i] The Condo (2015) [BluRay] [720p] [YTS AM] 684.31 MB 691 338 1 day 15 hours
[i] Genesis.2018.HDRip.XviD.AC3-EVO 1.41 GB 682 621 2 days 1 day