Sex Gaya Kucing | Full Length Movies (Gay) | My Hero Academia Saison 3 episode 6 VOSTFR

Amazon Obhijaan (2017) 720p HDRip - x264 - HQ Line Auds-[Hindi+Tamil+Telugu+Bengali]- 1.4GB [MovCR]

Posted on April 16, 2018 in Movies » Misc

Size: 1.7 GB , Seeds: 29 , Peers: 10 ( Updated June 19, 2018 - Refresh )

* Download via Magnet Link , * To download files you need a Bittorrent Client , * How to download torrents from Bit Torrent Scene?

Scrape History ( seeds + peers )

Internal Files

[www.MovCR.com] Amazon Obhijaan (2017) 720p HDRip - x264 - Line Auds-[Hindi+Tamil+Telugu+Bengali]- 1.4GB [MovCR]
Sample - Only Telugu.mp4   34.22 MB
www.MovCR.com - Amazon Obhijaan (2017) 720p HDRip - x264 - Line Auds-[Hindi+Tamil+Telugu+Bengali]- 1.4GB [MovCR].mkv   1.67 GB
www.MovCR.com.txt   13 Byte

Hash Code

46a3a42ad73c67a7b223d9a1585961d3e68a073f

Description

Visit www.movcr.com

Amazon Obhijaan (2017) 720p HDRip - x264 - HQ Line Auds-[Hindi+Tamil+Telugu+Bengali]- 1.4GB [MovCR]

http://www.imdb.com/title/tt5125414/

SCREENSHOT

General

Complete name : [www.MovCR.com] Amazon Obhijaan (2017) 720p HDRip - x264 - Line Auds-[Hindi+Tamil+Telugu+Bengali]- 1.4GB [MovCR]\www.MovCR.com - Amazon Obhijaan (2017) 720p HDRip - x264 - Line Auds-[Hindi+Tamil+Telugu+Bengali]- 1.4GB [MovCR].mkv

Format : Matroska

Format version : Version 4 / Version 2

File size : 1.67 GiB

Duration : 2 h 18 min

Overall bit rate mode : Variable

Overall bit rate : 1 729 kb/s

Movie name : www.MovCR.com

Encoded date : UTC 2018-04-16 04:00:46

Writing application : mkvmerge v9.5.0 ('Quiet Fire') 64bit

Writing library : libebml v1.3.4 + libmatroska v1.4.5


Video

ID : 1

Format : AVC

Format/Info : Advanced Video Codec

Format profile : [email protected]
Format settings : CABAC / 4 Ref Frames

Format settings, CABAC : Yes

Format settings, RefFrames : 4 frames

Codec ID : V_MPEG4/ISO/AVC

Duration : 2 h 17 min

Bit rate : 1 085 kb/s

Width : 1 280 pixels

Height : 536 pixels

Display aspect ratio : 2.40:1

Frame rate mode : Variable

Frame rate : 29.245 FPS

Color space : YUV

Chroma subsampling : 4:2:0

Bit depth : 8 bits

Scan type : Progressive

Bits/(Pixel*Frame) : 0.054

Stream size : 1.03 GiB (62%)

Title : www.MovCR.com

Writing library : x264 core 112

Encoding settings : cabac=1 / ref=2 / deblock=1:0:0 / analyse=0x1:0x111 / me=hex / subme=6 / psy=1 / psy_rd=1.00:0.00 / mixed_ref=0 / me_range=16 / chroma_me=1 / trellis=0 / 8x8dct=0 / cqm=0 / deadzone=21,11 / fast_pskip=1 / chroma_qp_offset=-2 / threads=12 / sliced_threads=0 / nr=0 / decimate=1 / interlaced=0 / constrained_intra=0 / bframes=2 / b_pyramid=2 / b_adapt=1 / b_bias=0 / direct=1 / weightb=0 / open_gop=0 / weightp=2 / keyint=300 / keyint_min=29 / scenecut=40 / intra_refresh=0 / rc_lookahead=40 / rc=abr / mbtree=1 / bitrate=1085 / ratetol=1.0 / qcomp=0.60 / qpmin=3 / qpmax=51 / qpstep=4 / ip_ratio=1.40 / aq=1:1.00

Language : English

Default : Yes

Forced : No

Color range : Limited

Color primaries : BT.709

Transfer characteristics : BT.709

Matrix coefficients : BT.709


Audio #1

ID : 2

Format : MPEG Audio

Format version : Version 1

Format profile : Layer 3

Format settings : Joint stereo / MS Stereo

Codec ID : A_MPEG/L3

Codec ID/Hint : MP3

Duration : 2 h 17 min

Bit rate mode : Variable

Bit rate : 96.0 kb/s

Channel(s) : 2 channels

Sampling rate : 44.1 kHz

Frame rate : 38.281 FPS (1152 SPF)

Compression mode : Lossy

Stream size : 95.8 MiB (6%)

Title : www.MovCR.com

Writing library : LAME3.99r

Encoding settings : -m j -V 4 -q 3 -lowpass 15.1 --abr 96

Language : Telugu

Default : No

Forced : No


Audio #2

ID : 3

Format : AAC

Format/Info : Advanced Audio Codec

Format profile : LC

Codec ID : A_AAC-2

Duration : 2 h 18 min

Bit rate : 369 kb/s

Channel(s) : 2 channels

Channel positions : Front: L R

Sampling rate : 44.1 kHz

Frame rate : 43.066 FPS (1024 SPF)

Compression mode : Lossy

Stream size : 365 MiB (21%)

Title : www.MovCR.com

Language : Bengali

Default : No

Forced : No


Audio #3

ID : 4

Format : MPEG Audio

Format version : Version 1

Format profile : Layer 3

Format settings : Joint stereo / MS Stereo

Codec ID : A_MPEG/L3

Codec ID/Hint : MP3

Duration : 2 h 17 min

Bit rate mode : Variable

Bit rate : 96.0 kb/s

Channel(s) : 2 channels

Sampling rate : 44.1 kHz

Frame rate : 38.281 FPS (1152 SPF)

Compression mode : Lossy

Stream size : 94.5 MiB (6%)

Title : www.MovCR.com

Writing library : LAME3.99r

Encoding settings : -m j -V 4 -q 3 -lowpass 15.1 --abr 96

Language : Hindi

Default : Yes

Forced : Yes


Audio #4

ID : 5

Format : MPEG Audio

Format version : Version 1

Format profile : Layer 3

Format settings : Joint stereo / MS Stereo

Codec ID : A_MPEG/L3

Codec ID/Hint : MP3

Duration : 2 h 17 min

Bit rate mode : Variable

Bit rate : 96.0 kb/s

Channel(s) : 2 channels

Sampling rate : 44.1 kHz

Frame rate : 38.281 FPS (1152 SPF)

Compression mode : Lossy

Stream size : 90.1 MiB (5%)

Title : www.MovCR.com

Writing library : LAME3.99r

Encoding settings : -m j -V 4 -q 3 -lowpass 15.1 --abr 96

Language : Tamil

Default : No

Forced : No




SCREENSHOT
SCREENSHOT
SCREENSHOT
SCREENSHOT
SCREENSHOT
SCREENSHOT
SCREENSHOT

Torrent location

http://www.1337x.to/torrent/2928612/Amazon-Obhijaan-2017-720p-HDRip-x264-HQ-Line-Auds-Hindi-Tamil-Telugu-Bengali-1-4GB-MovCR/

Comments

You must log in to add a comment.

Embed Code

Sharing Widget

Top Movies ( auto generated report )

FILENAME SIZE SEEDS PEERS ADDED UPD
[i] Overboard (2018) [WEBRip] [720p] [YTS AM] 950.69 MB 5337 2987 1 day 23 hours
[i] How It Ends (2018) [WEBRip] [720p] [YTS AM] 970.57 MB 4127 2454 1 day 23 hours
[i] Furious (2017) [BluRay] [720p] [YTS AM] 1018.36 MB 3682 2215 1 day 23 hours
[i] Overboard (2018) [WEBRip] [1080p] [YTS AM] (1) 1.79 GB 2987 1164 1 day 23 hours
[i] Siberia (2018) [WEBRip] [720p] [YTS AM] 891.58 MB 2776 1456 1 day 23 hours
[i] How It Ends (2018) [WEBRip] [1080p] [YTS AM] 1.82 GB 2685 1386 1 day 23 hours
[i] Furious (2017) [BluRay] [1080p] [YTS AM] 1.9 GB 2622 1258 1 day 23 hours
[i] Siberia (2018) [WEBRip] [1080p] [YTS AM] 1.67 GB 1989 917 1 day 23 hours
[i] 7 Splinters in Time (2018) [WEBRip] [720p] [YTS AM] 653.09 MB 1218 446 1 day 23 hours
[i] Incredibles 2 2018 HDTC XViD AC3-ETRG 1.31 GB 1317 1064 3 days 2 days